Westworld.S02E10.The.Passenger.1080p.AMZN.WEBRip.DDP5.1.x264-NTb[rarbg]

Posted on June 25, 2018 in Series » Misc , verified torrent

Size: 6.1 GB , Seeds: 1082 , Peers: 273 ( Updated June 26, 2018 - Refresh )

* Download via Magnet Link , * To download files you need a Bittorrent Client , * How to download torrents from Bit Torrent Scene?

Scrape History ( seeds + peers )

Internal Files

Westworld.S02E10.The.Passenger.1080p.AMZN.WEBRip.DDP5.1.x264-NTb[rarbg]
RARBG.txt   0.0 KB

Westworld.S02E10.The.Passenger.1080p.AMZN.WEB-DL.DDP5.1.H.264-NTb.mkv   6.1 GB

Hash Code

12edb1cec93be978f1aa5942910ed23707e47a40

Description

Westworld.S02E10.The.Passenger.1080p.AMZN.WEBRip.DDP5.1.x264-NTb


Video

ID : 1

Format : AVC

Format/Info : Advanced Video Codec

Format profile : [email protected]
Format settings : CABAC / 4 Ref Frames

Format settings, CABAC : Yes

Format settings, RefFrames : 4 frames

Codec ID : V_MPEG4/ISO/AVC

Duration : 1 h 32 min

Bit rate mode : Constant

Bit rate : 9 256 kb/s

Nominal bit rate : 10 000 kb/s

Width : 1 920 pixels

Height : 1 080 pixels

Display aspect ratio : 16:9

Frame rate mode : Constant

Frame rate : 23.976 (24000/1001) FPS

Color space : YUV

Chroma subsampling : 4:2:0

Bit depth : 8 bits

Scan type : Progressive

Bits/(Pixel*Frame) : 0.186

Stream size : 5.95 GiB (98%)

Default : Yes

Forced : No

Color range : Limited

Color primaries : BT.709

Transfer characteristics : BT.709

Matrix coefficients : BT.709


Audio

ID : 2

Format : E-AC-3

Format/Info : Enhanced Audio Coding 3

Format settings, Endianness : Big

Codec ID : A_EAC3

Duration : 1 h 32 min

Bit rate mode : Constant

Bit rate : 192 kb/s

Channel(s) : 6 channels

Channel positions : Front: L C R, Side: L R, LFE

Sampling rate : 48.0 kHz

Frame rate : 187.500 FPS (256 SPF)

Compression mode : Lossy

Stream size : 126 MiB (2%)

Language : English

Service kind : Complete Main

Default : Yes

Forced : No


Text

ID : 3

Format : UTF-8

Codec ID : S_TEXT/UTF8

Codec ID/Info : UTF-8 Plain Text

Duration : 1 h 31 min

Bit rate : 38 b/s

Count of elements : 914

Stream size : 25.8 KiB (0%)

Title : SDH

Language : English

Default : No

Forced : No


SCREENSHOT

Torrent location

https://www.1337x.to/torrent/3073788/Westworld-S02E10-The-Passenger-1080p-AMZN-WEBRip-DDP5-1-x264-NTb-rarbg/

Trackers

Refresh Leechers : Updated June 26, 2018

1. udp://9.rarbg.com:2710/announce

2. udp://tracker.opentrackr.org:1337/announce

3. udp://tracker.pirateparty.gr:6969/announce

4. udp://tracker.leechers-paradise.org:6969/announce

5. udp://tracker.coppersurfer.tk:6969/announce

6. udp://tracker.zer0day.to:1337/announce

Comments

You must log in to add a comment.

Embed Code

Sharing Widget

Related torrents

FILENAME SIZE SEEDS PEERS ADDED UPD
[i] Westworld.S02E10.REPACK.The.Passenger.720p.AMZN.WEBRip.DDP5.1.x264-NTb[rarbg] 2.5 GB 939 2329 3 weeks 3 weeks
[i] Westworld.S02E10.REPACK.The.Passenger.1080p.AMZN.WEBRip.DDP5.1.x264-NTb[rarbg] 7.4 GB 339 1761 3 weeks 3 weeks
[i] Westworld S02E10 The Passenger 720p WEB-DL X264 AC3-EVO[MOVCR]
posted by Tamilgun in Movies - Action
1.74 GB 20 11 3 weeks 1 week

Top Series ( auto generated report )

FILENAME SIZE SEEDS PEERS ADDED UPD
[i] Power.2014.S05E03.WEB.H264-DEFLATE[ettv] 228.12 MB 1429 85 3 days 13 hours
[i] Sharp.Objects.S01E02.WEB.H264-DEFLATE[ettv] 287.58 MB 1051 159 3 days 2 days
[i] Preacher.S03E04.720p.HDTV.x264-AVS [rarbg] 871.1 MB 697 134 2 days 2 days
[i] Preacher.S03E04.HDTV.x264-SVA[ettv] 229.43 MB 570 56 2 days 1 day
[i] Who.is.America.S01E01.HDTV.x264-aAF[ettv] 142.48 MB 521 58 2 days 1 day
[i] Salvation.S02E04.HDTV.x264-SVA[ettv] 221.73 MB 472 39 1 day 1 day
[i] Quantico.S03E10.HDTV.x264-KILLERS[ettv] 267.09 MB 406 44 5 days 4 days
[i] Poldark.2015.S04E06.HDTV.x264-MTB[ettv] 364.03 MB 349 42 3 days 2 days
[i] MasterChef.Australia.S10E52.HDTV.x264-SPC[ettv] 393.26 MB 393 39 1 day 15 hours
[i] Whistleblower.S01E01.WEB.x264-TBS[ettv] 689.24 MB 308 73 4 days 3 days