Unsane 2018 720p BluRay x264 Dual Audio [Hindi DD 5 1 - English 2 0] ESub [MW]

Posted by moviefreak •1836 on July 6, 2018 in Movies » Thriller , verified torrent

Size: 1.03 GB , Seeds: 55 , Peers: 21 ( Updated July 12, 2018 - Refresh )

* Download via Magnet Link , * To download files you need a Bittorrent Client , * How to download torrents from Bit Torrent Scene?

Scrape History ( seeds + peers )

Internal Files

Unsane 2018 720p BluRay x264 Dual Audio [Hindi DD 5.1 - English 2.0] ESub [MW]
Unsane 2018 720p BluRay x264 Dual Audio [Hindi DD 5.1 - English 2.0] ESub [MW].mkv   1.03 GB

Hash Code

06346b37f177aef4fc155260fe39d0516acb7551

Description


SCREENSHOT


General
Format : Matroska
Format version : Version 4 / Version 2
File size : 1.03 GiB
Duration : 1 h 38 min
Overall bit rate : 1 507 kb/s

Video
ID : 1
Format : AVC
Format/Info : Advanced Video Codec
Format profile : High@L4.1
Format settings : CABAC / 9 Ref Frames
Format settings, CABAC : Yes
Format settings, RefFrames : 9 frames
Codec ID : V_MPEG4/ISO/AVC
Duration : 1 h 38 min
Bit rate : 1 182 kb/s
Width : 1 120 pixels
Height : 720 pixels
Display aspect ratio : 16:10
Frame rate mode : Constant
Frame rate : 23.976 (24000/1001) FPS
Color space : YUV
Chroma subsampling : 4:2:0
Bit depth : 8 bits
Scan type : Progressive
Bits/(Pixel*Frame) : 0.061
Stream size : 830 MiB (78%)
Writing library : x264 core 133 r2334 a3ac64b
Default : Yes
Forced : No

Audio #1
ID : 2
Format : AC-3
Format/Info : Audio Coding 3
Codec ID : A_AC3
Duration : 1 h 37 min
Bit rate mode : Constant
Bit rate : 224 kb/s
Channel(s) : 6 channels
Channel positions : Front: L C R, Side: L R, LFE
Sampling rate : 48.0 kHz
Frame rate : 31.250 FPS (1536 SPF)
Bit depth : 16 bits
Compression mode : Lossy
Stream size : 157 MiB (15%)
Language : Hindi
Service kind : Complete Main
Default : Yes
Forced : No

Audio #2
ID : 3
Format : AAC
Format/Info : Advanced Audio Codec
Format profile : HE-AAC / LC
Format settings : Explicit
Codec ID : A_AAC-2
Duration : 1 h 38 min
Bit rate : 100.0 kb/s
Channel(s) : 2 channels
Channel positions : Front: L R
Sampling rate : 48.0 kHz / 24.0 kHz
Frame rate : 23.438 FPS (1024 SPF)
Compression mode : Lossy
Stream size : 70.2 MiB (7%)
Language : English
Default : No
Forced : No

Text
ID : 4
Format : UTF-8
Codec ID : S_TEXT/UTF8
Codec ID/Info : UTF-8 Plain Text
Duration : 1 h 35 min
Bit rate : 61 b/s
Count of elements : 1283
Stream size : 43.0 KiB (0%)
Language : English
Default : Yes
Forced : No

Menu
00:00:00.000 : en:00:00:00.000
00:05:40.257 : en:00:05:40.257
00:10:21.913 : en:00:10:21.913
00:14:24.697 : en:00:14:24.697
00:19:26.332 : en:00:19:26.332
00:24:46.235 : en:00:24:46.235
00:29:10.165 : en:00:29:10.165
00:36:35.402 : en:00:36:35.402
00:40:25.089 : en:00:40:25.089
00:45:23.596 : en:00:45:23.596
00:50:14.803 : en:00:50:14.803
00:56:12.286 : en:00:56:12.286
00:59:06.835 : en:00:59:06.835
01:04:44.464 : en:01:04:44.464
01:07:30.046 : en:01:07:30.046
01:15:37.450 : en:01:15:37.450
01:23:25.334 : en:01:23:25.334
01:26:39.653 : en:01:26:39.653
01:30:23.168 : en:01:30:23.168
01:35:08.411 : en:01:35:08.411


https://pichub.site/image/YFqv8
https://pichub.site/image/YFjcX
https://pichub.site/image/YQJS5
https://pichub.site/image/YQ4HJ
https://pichub.site/image/YQMgh

Trackers

Refresh Leechers : Updated July 12, 2018

1. udp://tracker.coppersurfer.tk:6969/announce

2. udp://tracker.pirateparty.gr:6969/announce

3. udp://tracker.coppersurfer.tk:6969/announce

4. udp://tracker.leechers-paradise.org:6969/announce

5. udp://eddie4.nl:6969/announce

6. udp://tracker.tiny-vps.com:6969/announce

7. udp://9.rarbg.me:2720/announce

8. udp://9.rarbg.to:2740/announce

9. udp://public.popcorn-tracker.org:6969/announce

10. udp://open.stealth.si:80/announce

11. udp://tracker.vanitycore.co:6969/announce

12. udp://tracker.opentrackr.org:1337/announce

13. udp://bt.firebit.co.uk:6969/announce

14. udp://shadowshq.yi.org:6969/announce

Comments

You must log in to add a comment.

Embed Code

Sharing Widget

Related torrents

FILENAME SIZE SEEDS PEERS ADDED UPD
[i] Unsane (2018) [BluRay] [720p] [YTS AM] 830.56 MB 188 32 1 month 1 week
[i] downloadhub in Unsane (2018) 720p BluRay x264 [Dual-Audio][Hindi 5 1 - English 5 1] ESubs - Downloadhub
posted by downloadhub in Movies - Horror
928.77 MB 27 15 1 week 6 days
[i] Unsane.2018.720p.BluRay.x264-DRONES[N1C] 4.4 GB 2 1 1 month 1 month
[i] Unsane 2018 FRENCH 720p BluRay x264-LOST 3.3 GB 1 0 1 day 1 day

Top Movies ( auto generated report )

FILENAME SIZE SEEDS PEERS ADDED UPD
[i] Overboard (2018) [WEBRip] [720p] [YTS AM] 950.69 MB 4553 1748 4 days 20 hours
[i] How It Ends (2018) [WEBRip] [720p] [YTS AM] 970.57 MB 3710 1804 4 days 1 day
[i] Overboard (2018) [WEBRip] [1080p] [YTS AM] (1) 1.79 GB 2987 1164 4 days 3 days
[i] Siberia (2018) [WEBRip] [720p] [YTS AM] 891.58 MB 2776 1456 4 days 3 days
[i] Furious (2017) [BluRay] [720p] [YTS AM] 1018.36 MB 2730 859 4 days 1 day
[i] How It Ends (2018) [WEBRip] [1080p] [YTS AM] 1.82 GB 2685 1386 4 days 3 days
[i] Furious (2017) [BluRay] [1080p] [YTS AM] 1.9 GB 2622 1258 4 days 3 days
[i] Siberia (2018) [WEBRip] [1080p] [YTS AM] 1.67 GB 1989 917 4 days 3 days
[i] 7 Splinters in Time (2018) [WEBRip] [720p] [YTS AM] 653.09 MB 1218 446 4 days 3 days
[i] Tango One (2018) [BluRay] [720p] [YTS AM] 967.28 MB 1073 689 1 day 6 hours