The Last Man 2018 HC HDRip x264 AAC [MW]

Posted by moviefreak •1821 on July 10, 2018 in Movies » Sci-Fi , verified torrent

Size: 890.63 MB , Seeds: 28 , Peers: 6 ( Updated July 16, 2018 )

* Download via Magnet Link , * To download files you need a Bittorrent Client , * How to download torrents from Bit Torrent Scene?

Scrape History ( seeds + peers )

Internal Files

The Last Man 2018 HC HDRip x264 AAC [MW]
The Last Man 2018 HC HDRip x264 AAC [MW].mkv   890.63 MB

Hash Code

ee5df253ffe0eae9c692299088077fe3d5f87e8f

Description


SCREENSHOT


General
Format : Matroska
Format version : Version 4 / Version 2
File size : 891 MiB
Duration : 1 h 41 min
Overall bit rate : 1 225 kb/s

Video
ID : 1
Format : AVC
Format/Info : Advanced Video Codec
Format profile : High@L4.1
Format settings : CABAC / 5 Ref Frames
Format settings, CABAC : Yes
Format settings, RefFrames : 5 frames
Codec ID : V_MPEG4/ISO/AVC
Duration : 1 h 41 min
Bit rate : 1 100 kb/s
Width : 662 pixels
Height : 304 pixels
Display aspect ratio : 2.2:1
Frame rate mode : Constant
Frame rate : 24.000 FPS
Color space : YUV
Chroma subsampling : 4:2:0
Bit depth : 8 bits
Scan type : Progressive
Bits/(Pixel*Frame) : 0.228
Stream size : 796 MiB (89%)
Writing library : x264 core 155 r2901 7d0ff22
Default : Yes
Forced : No

Audio
ID : 2
Format : AAC
Format/Info : Advanced Audio Codec
Format profile : LC
Codec ID : A_AAC-2
Duration : 1 h 41 min
Bit rate : 128 kb/s
Channel(s) : 2 channels
Channel positions : Front: L R
Sampling rate : 48.0 kHz
Frame rate : 46.875 FPS (1024 SPF)
Compression mode : Lossy
Stream size : 93.1 MiB (10%)
Default : Yes
Forced : No


https://pichub.site/image/a4Td4
https://pichub.site/image/a4Q3y
https://pichub.site/image/a4bab
https://pichub.site/image/a4e80
https://pichub.site/image/a4jlV

Trackers

Refresh Leechers : Updated July 16, 2018

1. udp://tracker.coppersurfer.tk:6969/announce

2. udp://tracker.pirateparty.gr:6969/announce

3. udp://tracker.coppersurfer.tk:6969/announce

4. udp://tracker.leechers-paradise.org:6969/announce

5. udp://eddie4.nl:6969/announce

6. udp://tracker.tiny-vps.com:6969/announce

7. udp://9.rarbg.me:2800/announce

8. udp://9.rarbg.to:2720/announce

9. udp://public.popcorn-tracker.org:6969/announce

10. udp://open.stealth.si:80/announce

11. udp://tracker.vanitycore.co:6969/announce

12. udp://tracker.opentrackr.org:1337/announce

13. udp://bt.firebit.co.uk:6969/announce

14. udp://shadowshq.yi.org:6969/announce

Comments

You must log in to add a comment.

Embed Code

Sharing Widget

Related torrents

FILENAME SIZE SEEDS PEERS ADDED UPD
[i] The Last Witness (2018) [WEBRip] [720p] [YTS AM] 788.99 MB 302 39 1 month 2 weeks
[i] Insidious The Last Key (2018) [WEBRip] [720p] [YTS AM] 882.26 MB 276 70 3 months 2 weeks
[i] Insidious The Last Key (2018) [WEBRip] [1080p] [YTS AM] 1.65 GB 268 48 3 months 2 weeks
[i] The Last Witness (2018) [WEBRip] [1080p] [YTS AM] 1.49 GB 207 27 1 month 2 weeks
[i] downloadhub in Insidious The Last Key (2018) 720p BluRay x264 [Dual-Audio][Hindi 5 1 - English 5 1] ESubs - Downloadhub
posted by downloadhub in Movies - Horror
988.38 MB 61 16 2 months 4 weeks
[i] [BlackedRaw / Blacked]Elena Koshka - Last Night In LA(NEW***07.16.2018)
posted by nsanyi23 in Porn - Movies
317.8 MB 53 34 19 hours 17 hours
[i] Insidious.The.Last.Key.2018.1080p.KORSUB.HDRip.x264.AAC2.0-STUTTERSHIT 3.84 GB 31 4 4 months 3 weeks
[i] Insidious The Last Key 2018 NEW HDCAM X264 HQ-CPG 1.83 GB 27 6 6 months 2 weeks
[i] Insidious.The.Last.Key.2018.BDRip.x264-DRONES 371.35 MB 27 4 3 months 2 weeks
[i] Insidious The Last Key 2018 1080p BluRay x264 Dual Audio [Hindi DD 5 1 - English 2 0] ESub [MW]
posted by moviefreak in Movies - Horror
1.51 GB 19 7 2 months 4 hours

Top Movies ( auto generated report )

FILENAME SIZE SEEDS PEERS ADDED UPD
[i] Overboard (2018) [WEBRip] [720p] [YTS AM] 950.69 MB 4797 1885 2 days 2 hours
[i] How It Ends (2018) [WEBRip] [720p] [YTS AM] 970.57 MB 4127 2454 2 days 1 day
[i] Furious (2017) [BluRay] [720p] [YTS AM] 1018.36 MB 3682 2215 2 days 1 day
[i] Overboard (2018) [WEBRip] [1080p] [YTS AM] (1) 1.79 GB 2987 1164 2 days 1 day
[i] Siberia (2018) [WEBRip] [720p] [YTS AM] 891.58 MB 2776 1456 2 days 1 day
[i] How It Ends (2018) [WEBRip] [1080p] [YTS AM] 1.82 GB 2685 1386 2 days 1 day
[i] Furious (2017) [BluRay] [1080p] [YTS AM] 1.9 GB 2622 1258 2 days 1 day
[i] Siberia (2018) [WEBRip] [1080p] [YTS AM] 1.67 GB 1989 917 2 days 1 day
[i] Incredibles 2 2018 HDTC XViD AC3-ETRG 1.31 GB 1380 538 4 days 15 min
[i] 7 Splinters in Time (2018) [WEBRip] [720p] [YTS AM] 653.09 MB 1218 446 2 days 1 day