Shawn White's Gold Metal Run at Pyeongchang 2018.mkv

Posted on February 14, 2018 in Series » Misc

Size: 46.21 MB , Seeds: 1 , Peers: 0 ( Updated August 2, 2018 - Refresh )

* Download via Magnet Link , * To download files you need a Bittorrent Client , * How to download torrents from Bit Torrent Scene?

Scrape History ( seeds + peers )

Internal Files

Shawn White's Gold Metal Run at Pyeongchang 2018.mkv
Shawn White's Gold Metal Run at Pyeongchang 2018.mkv   46.18 MB

Hash Code

e2ca30b4ebe67c93fce90135761493f1adb3ae09

Description

Shawn White's Gold Metal Run at Pyeongchang 2018

Lays down a 97.75 to take #1 in the men's halfpipe.


SCREENSHOT

General

Complete name                            : Shawn White's Gold Metal Run at Pyeongchang 2018.mkv

Format                                   : Matroska

Format version                           : Version 2

File size                                : 46.2 MiB

Duration                                 : 1 min 42 s

Overall bit rate                         : 3 777 kb/s

Encoded date                             : UTC 2018-02-14 03:26:44

Writing application                      : mkvmerge v15.0.0 ('Duel with the Devil') 64-bit

Writing library                          : libebml v1.3.5 + libmatroska v1.4.5


Video

ID                                       : 1

Format                                   : AVC

Format/Info                              : Advanced Video Codec

Format profile                           : [email protected]
Format settings, CABAC                   : Yes

Format settings, RefFrames               : 5 frames

Codec ID                                 : V_MPEG4/ISO/AVC

Duration                                 : 1 min 42 s

Bit rate                                 : 3 390 kb/s

Width                                    : 1 280 pixels

Height                                   : 720 pixels

Display aspect ratio                     : 16:9

Frame rate mode                          : Constant

Frame rate                               : 59.940 (60000/1001) FPS

Color space                              : YUV

Chroma subsampling                       : 4:2:0

Bit depth                                : 8 bits

Scan type                                : Progressive

Bits/(Pixel*Frame)                       : 0.061

Stream size                              : 41.4 MiB (90%)

Default                                  : Yes

Forced                                   : No


Audio

ID                                       : 2

Format                                   : AC-3

Format/Info                              : Audio Coding 3

Format settings, Endianness              : Big

Codec ID                                 : A_AC3

Duration                                 : 1 min 42 s

Bit rate mode                            : Constant

Bit rate                                 : 384 kb/s

Channel(s)                               : 6 channels

Channel positions                        : Front: L C R, Side: L R, LFE

Sampling rate                            : 48.0 kHz

Frame rate                               : 31.250 FPS (1536 SPF)

Bit depth                                : 16 bits

Compression mode                         : Lossy

Stream size                              : 4.69 MiB (10%)

Language                                 : new

Service kind                             : Complete Main

Default                                  : Yes

Forced                                   : No

Torrent location

https://www.1337x.to/torrent/2799251/Shawn-White-s-Gold-Metal-Run-at-Pyeongchang-2018-mkv/

Trackers

Refresh Leechers : Updated August 2, 2018

1. http://bigfoot1942.sektori.org:6969/announce

2. http://tracker2.wasabii.com.tw:6969/announce

3. http://tracker.opentrackr.org/announce

4. http://announce.torrentsmd.com:6969/announce

5. http://tracker.trackerfix.com/announce

6. http://tracker.opentrackr.org/announce

7. udp://explodie.org:6969/announce

8. udp://mgtracker.org:6969/announce

9. udp://asnet.pw:2710/announce

10. udp://tracker.mgtracker.org:2710/announce

11. udp://tracker4.piratux.com:6969/announce

12. udp://tracker.trackerfix.com:80/announce

13. udp://tracker.pomf.se:80/announce

14. udp://tracker.x4w.co:6969/announce

15. udp://castradio.net:6969/announce

16. udp://ipv4.tracker.harry.lu:80/announce

17. udp://tracker.mg64.net:6881/announce

18. udp://tracker.sktorrent.net:6969/announce

19. udp://tracker.blackunicorn.xyz:6969/announce

20. udp://tracker.internetwarriors.net:1337/announce

21. udp://public.popcorn-tracker.org:6969/announce

22. udp://glotorrents.pw:6969/announce

23. udp://tracker.vanitycore.co:6969/announce

24. udp://tracker.trackerfix.com:80/announce

25. udp://p4p.arenabg.ch:1337/announce

26. udp://9.rarbg.me:2710/announce

27. udp://tracker.zer0day.to:1337/announce

28. udp://tracker.opentrackr.org:1337/announce

29. udp://tracker.pirateparty.gr:6969/announce

30. udp://9.rarbg.to:2710/announce

31. udp://eddie4.nl:6969/announce

32. udp://tracker.coppersurfer.tk:6969/announce

33. udp://tracker.leechers-paradise.org:6969/announce

34. udp://inferno.demonoid.pw:3391/announce

35. udp://eddie4.nl:6969/announce

36. udp://tracker.zer0day.to:1337/announce

37. udp://tracker.leechers-paradise.org:6969/announce

38. udp://tracker.ilibr.org:6969/announce

39. udp://inferno.demonoid.pw:3393/announce

40. http://tracker.opentrackr.org:1337/announce

41. udp://9.rarbg.me:2710/announce

42. udp://tracker.trackerfix.com:80/announce

43. udp://tracker.coppersurfer.tk:6969/announce

Comments

You must log in to add a comment.

Embed Code

Sharing Widget

Top Series ( auto generated report )

FILENAME SIZE SEEDS PEERS ADDED UPD
[i] Castle.Rock.S01E06.WEBRip.x264-PBS[ettv] 231.72 MB 807 152 4 days 3 days
[i] Animal.Kingdom.US.S03E12.WEBRip.x264-TBS[ettv] 362.64 MB 590 139 4 days 3 days
[i] Suits.S08E05.HDTV.x264-SVA[ettv] 192.8 MB 503 46 3 days 2 days
[i] Killjoys.S04E05.WEBRip.x264-PBS[eztv] 280.5 MB 470 569 1 day 1 day
[i] Big.Brother.US.S20E22.HDTV.x264-[WRCR] 349.73 MB 440 46 3 days 2 days
[i] Killjoys.S04E05.WEBRip.x264-PBS[ettv] 280.45 MB 841 91 1 day 8 hours
[i] Hard.Knocks.S13E02.WEBRip.x264-PBS[ettv] 663.25 MB 328 62 3 days 2 days
[i] Wynonna.Earp.S03E05.HDTV.x264-KILLERS[ettv] 283.44 MB 319 30 1 day 13 hours
[i] MasterChef.US.S09E13.WEB.x264-CookieMonster[ettv] 341.7 MB 233 29 3 days 2 days
[i] The.Sinner.S02E03.HDTV.x264-KILLERS[ettv] 176.99 MB 232 24 3 days 2 days