Richie (2018) 720p HIndi Dubbed HDRip x264 AAC by Full4movies

Posted on June 14, 2018 in Movies » Misc

Size: 855.2 MB , Seeds: 3 , Peers: 7 ( Updated June 14, 2018 - Refresh )

* Download via Magnet Link , * To download files you need a Bittorrent Client , * How to download torrents from Bit Torrent Scene?

Scrape History ( seeds + peers )

Internal Files

Richie (2018) 720p HIndi Dubbed HDRip x264 AAC by Full4movies
Richie   2018) 720p HIndi Dubbed HDRip x264 AAC by Full4movies.mkv (855.2 MB

Hash Code

91be1454fe5b724cc0faad5f94675b941f1b83aa

Description

SCREENSHOT

General

Complete name : Richie (2018) 720p HIndi Dubbed HDRip x264 AAC by Full4movies.mkv

Format : Matroska

Format version : Version 4 / Version 2

File size : 855 MiB

Duration : 1 h 38 min

Overall bit rate : 1 216 kb/s

Encoded date : UTC 2018-06-13 10:21:28

Writing application : mkvmerge v8.1.0 ('Psychedelic Postcard') 32bit

Writing library : libebml v1.3.1 + libmatroska v1.4.2


Video

ID : 1

Format : AVC

Format/Info : Advanced Video Codec

Format profile : [email protected]
Format settings, CABAC : Yes

Format settings, RefFrames : 3 frames

Codec ID : V_MPEG4/ISO/AVC

Duration : 1 h 38 min

Bit rate : 1 089 kb/s

Width : 1 280 pixels

Height : 720 pixels

Display aspect ratio : 16:9

Frame rate mode : Constant

Frame rate : 25.000 FPS

Color space : YUV

Chroma subsampling : 4:2:0

Bit depth : 8 bits

Scan type : Progressive

Bits/(Pixel*Frame) : 0.047

Stream size : 765 MiB (89%)

Default : Yes

Forced : No

Color range : Limited

Color primaries : BT.709

Transfer characteristics : BT.709

Matrix coefficients : BT.709


Audio

ID : 2

Format : AAC

Format/Info : Advanced Audio Codec

Format profile : LC

Codec ID : A_AAC

Duration : 1 h 38 min

Bit rate : 126 kb/s

Channel(s) : 2 channels

Channel positions : Front: L R

Sampling rate : 44.1 kHz

Frame rate : 43.066 FPS (1024 SPF)

Compression mode : Lossy

Stream size : 88.3 MiB (10%)

Language : English

Default : Yes

Forced : No


Screen Shoots
SCREENSHOT

Torrent location

https://www.1337x.to/torrent/3054564/Richie-2018-720p-HIndi-Dubbed-HDRip-x264-AAC-by-Full4movies/

Trackers

Refresh Leechers : Updated June 14, 2018

1. udp://9.rarbg.com:2710/announce

2. udp://tracker.opentrackr.org:1337/announce

3. udp://tracker.pirateparty.gr:6969/announce

4. udp://tracker.leechers-paradise.org:6969/announce

5. udp://tracker.coppersurfer.tk:6969/announce

6. udp://tracker.zer0day.to:1337/announce

Comments

You must log in to add a comment.

Embed Code

Sharing Widget

Related torrents

FILENAME SIZE SEEDS PEERS ADDED UPD
[i] Richie (2018) Hindi Dubbed 720p HD x264 AAC 850MB [MOVCR] mp4
posted by Tamilgun in Movies - Drama
856.13 MB 30 9 1 week 3 days

Top Movies ( auto generated report )

FILENAME SIZE SEEDS PEERS ADDED UPD
[i] Rampage (2018) [WEBRip] [720p] [YTS AM] 924.3 MB 13992 12685 3 days 2 days
[i] Rampage (2018) [WEBRip] [1080p] [YTS AM] 1.73 GB 11810 9729 3 days 2 days
[i] Ready Player One (2018) [WEBRip] [1080p] [YTS AM] 2.24 GB 10162 5063 3 days 9 hours
[i] Ready Player One (2018) [WEBRip] [720p] [YTS AM] 1.16 GB 9167 6479 3 days 2 days
[i] Blockers (2018) [WEBRip] [720p] [YTS AM] 861.94 MB 3817 2346 1 day 3 hours
[i] Life of the Party (2018) [WEBRip] [720p] [YTS AM] 886.77 MB 3245 2104 3 days 2 days
[i] Isle of Dogs (2018) [WEBRip] [1080p] [YTS AM] 1.55 GB 2561 854 1 day 3 hours
[i] Blockers (2018) [WEBRip] [1080p] [YTS AM] 1.62 GB 2549 1065 1 day 3 hours
[i] The Death of Superman (2018) [WEBRip] [720p] [YTS AM] 690.36 MB 2300 1288 3 days 2 days
[i] Beirut (2018) [WEBRip] [720p] [YTS AM] 929.6 MB 2164 1197 5 days 4 days