Your IP Address is . Location is Your ISP and Government can track your torrent activity! Hide your IP with a VPN!

Prom Night 2008 1080p BluRay x264 Dual Audio [Hindi - English 2 0] ESub

DOWNLOAD TORRENT DOWNLOAD DOWNLOAD ANONYMOUS

Posted by moviefreak •674 on January 4, 2018 in Movies » Horror , verified torrent

Size: 1.23 GB , Seeds: 27 , Peers: 23 ( Updated January 18, 2018 )

* Download via Magnet Link , * To download files you need a Bittorrent Client , * How to download torrents from Bit Torrent Scene?

Scrape History ( seeds + peers )

Internal Files

Prom Night 2008 1080p BluRay x264 Dual Audio [Hindi - English 2.0] ESub
Prom Night 2008 1080p BluRay x264 Dual Audio [Hindi - English 2.0] ESub.mkv   1.23 GB

Hash Code

6d8bc6e8840ed922f31862e30729643285082bc5

Description


SCREENSHOT

General
Format : Matroska
Format version : Version 4 / Version 2
File size : 1.23 GiB
Duration : 1 h 29 min
Overall bit rate : 1 978 kb/s

Video
ID : 1
Format : AVC
Format/Info : Advanced Video Codec
Format profile : High@L4
Format settings : CABAC / 5 Ref Frames
Format settings, CABAC : Yes
Format settings, ReFrames : 5 frames
Codec ID : V_MPEG4/ISO/AVC
Duration : 1 h 29 min
Bit rate : 1 832 kb/s
Width : 1 920 pixels
Height : 800 pixels
Display aspect ratio : 2.40:1
Frame rate mode : Constant
Frame rate : 23.976 (24000/1001) FPS
Color space : YUV
Chroma subsampling : 4:2:0
Bit depth : 8 bits
Scan type : Progressive
Bits/(Pixel*Frame) : 0.050
Stream size : 1.14 GiB (93%)
Writing library : x264 core 130 r2273 b3065e6
Default : Yes
Forced : No

Audio #1
ID : 2
Format : AAC
Format/Info : Advanced Audio Codec
Format profile : HE-AAC / LC
Format settings : Explicit
Codec ID : A_AAC-2
Duration : 1 h 29 min
Bit rate : 48.0 kb/s
Channel(s) : 2 channels
Channel positions : Front: L R
Sampling rate : 48.0 kHz / 24.0 kHz
Frame rate : 23.438 FPS (1024 SPF)
Compression mode : Lossy
Stream size : 30.6 MiB (2%)
Language : Hindi
Default : Yes
Forced : Yes

Audio #2
ID : 3
Format : AAC
Format/Info : Advanced Audio Codec
Format profile : LC
Codec ID : A_AAC-2
Duration : 1 h 29 min
Bit rate : 96.0 kb/s
Channel(s) : 2 channels
Channel positions : Front: L R
Sampling rate : 48.0 kHz
Frame rate : 46.875 FPS (1024 SPF)
Compression mode : Lossy
Stream size : 61.2 MiB (5%)
Language : English
Default : No
Forced : No

Text
ID : 4
Format : UTF-8
Codec ID : S_TEXT/UTF8
Codec ID/Info : UTF-8 Plain Text
Duration : 1 h 22 min
Bit rate : 52 b/s
Count of elements : 875
Stream size : 32.1 KiB (0%)
Default : Yes
Forced : No





SCREENSHOT
SCREENSHOT
SCREENSHOT
SCREENSHOT
SCREENSHOT
SCREENSHOT
SCREENSHOT
SCREENSHOT

Trackers

Refresh Leechers : Updated January 18, 2018

1. udp://tracker.coppersurfer.tk:6969/announce

2. udp://tracker.pirateparty.gr:6969/announce

3. udp://eddie4.nl:6969/announce

4. udp://tracker.leechers-paradise.org:6969/announce

5. udp://tracker.opentrackr.org:1337/announce

6. udp://p4p.arenabg.ch:1337/announce

7. udp://p4p.arenabg.com:1337/announce

8. udp://9.rarbg.me:2790/announce

9. udp://9.rarbg.to:2750/announce

10. udp://tracker.coppersurfer.tk:80/announce

11. udp://public.popcorn-tracker.org:6969/announce

12. udp://tracker.opentrackr.org:1337/announce

13. udp://tracker.zer0day.to:1337/announce

14. udp://tracker.leechers-paradise.org:6969/announce

15. udp://coppersurfer.tk:6969/announce

Comments

You must log in to add a comment.

Embed Code

Sharing Widget

Related torrents

FILENAME SIZE SEEDS PEERS ADDED UPD
[i] Prom Night (2008) 1080p BrRip x264 - YIFY 1.21 GB 7 1 4 years 6 months
[i] Prom Night 2008 DC 1080p BluRay x264 DD5 1-FGT 12.32 GB 0 0 2 years 4 months

Top Movies ( auto generated report )

FILENAME SIZE SEEDS PEERS ADDED UPD
[i] Geostorm (2017) [1080p] [YTS AG] 1.67 GB 5754 3112 1 day 15 hours
[i] Geostorm (2017) [720p] [YTS AG] 812.63 MB 5412 3658 1 day 15 hours
[i] Jigsaw (2017) [1080p] [YTS AG] 1.4 GB 4322 2711 2 days 1 day
[i] Jigsaw (2017) [720p] [YTS AG] 675.39 MB 3922 2227 2 days 1 day
[i] Mollys Game 2017 DVDScr XVID AC3 HQ Hive CM8 1.79 GB 2207 1893 2 days 1 day
[i] Darkest.Hour.2017.DVDScr.XVID.AC3.HQ.Hive-CM8 1.92 GB 2179 593 6 days 18 hours
[i] Professor Marston and the Wonder Women (2017) [720p] [YTS AG] 791.43 MB 2159 1179 4 days 3 days
[i] Acts.of.Violence.2018.WEB-DL.x264-FGT [rarbg] 760.65 MB 998 151 6 days 6 hours
[i] Acts of Violence.2018.HDRip.XviD.AC3-EVO 1.42 GB 1102 380 6 days 6 hours
[i] Thank You for Your Service (2017) [720p] [YTS AG] 801.88 MB 1658 1072 4 days 3 days