Party Bus to Hell 2017 1080p BluRay x264 DTS [MW]

Posted by moviefreak •1821 on July 2, 2018 in Movies » Horror , verified torrent

Size: 2.3 GB , Seeds: 1 , Peers: 2 ( Updated July 16, 2018 - Refresh )

* Download via Magnet Link , * To download files you need a Bittorrent Client , * How to download torrents from Bit Torrent Scene?

Scrape History ( seeds + peers )

Internal Files

Party Bus to Hell 2017 1080p BluRay x264 DTS [MW]
Party Bus to Hell 2017 1080p BluRay x264 DTS [MW].mkv   2.3 GB

Hash Code

086031854db30efdc61caad8f42f1a9cbfee7a0a

Description


SCREENSHOT


General
Format : Matroska
Format version : Version 4 / Version 2
File size : 2.30 GiB
Duration : 1 h 21 min
Overall bit rate : 4 036 kb/s

Video
ID : 1
Format : AVC
Format/Info : Advanced Video Codec
Format profile : High@L4.1
Format settings : CABAC / 4 Ref Frames
Format settings, CABAC : Yes
Format settings, RefFrames : 4 frames
Codec ID : V_MPEG4/ISO/AVC
Duration : 1 h 21 min
Bit rate : 2 600 kb/s
Width : 1 920 pixels
Height : 1 080 pixels
Display aspect ratio : 16:9
Frame rate mode : Constant
Frame rate : 23.976 (24000/1001) FPS
Color space : YUV
Chroma subsampling : 4:2:0
Bit depth : 8 bits
Scan type : Progressive
Bits/(Pixel*Frame) : 0.052
Stream size : 1.44 GiB (63%)
Writing library : x264 core 155 r2901 7d0ff22
Default : Yes
Forced : No

Audio
ID : 2
Format : DTS
Format/Info : Digital Theater Systems
Codec ID : A_DTS
Duration : 1 h 21 min
Bit rate mode : Constant
Bit rate : 1 509 kb/s
Channel(s) : 6 channels
Channel positions : Front: L C R, Side: L R, LFE
Sampling rate : 48.0 kHz
Frame rate : 93.750 FPS (512 SPF)
Bit depth : 24 bits
Compression mode : Lossy
Stream size : 880 MiB (37%)
Language : English
Default : Yes
Forced : No

Menu
00:00:00.000 : en:00:00:00.000
00:11:01.870 : en:00:11:01.870
00:18:45.124 : en:00:18:44.957
00:29:06.078 : en:00:29:05.994
00:39:36.666 : en:00:39:36.666
00:48:13.265 : en:00:48:13.265
00:53:51.645 : en:00:53:51.478
01:01:19.426 : en:01:01:19.342



https://pichub.site/image/Ypp6s
https://pichub.site/image/YplhY
https://pichub.site/image/Yp5fB
https://pichub.site/image/Yp6r6
https://pichub.site/image/YpnV4

Trackers

Refresh Leechers : Updated July 16, 2018

1. udp://tracker.coppersurfer.tk:6969/announce

2. udp://tracker.pirateparty.gr:6969/announce

3. udp://tracker.coppersurfer.tk:6969/announce

4. udp://tracker.leechers-paradise.org:6969/announce

5. udp://eddie4.nl:6969/announce

6. udp://tracker.tiny-vps.com:6969/announce

7. udp://9.rarbg.me:2720/announce

8. udp://9.rarbg.to:2740/announce

9. udp://public.popcorn-tracker.org:6969/announce

10. udp://open.stealth.si:80/announce

11. udp://tracker.vanitycore.co:6969/announce

12. udp://tracker.opentrackr.org:1337/announce

13. udp://bt.firebit.co.uk:6969/announce

14. udp://shadowshq.yi.org:6969/announce

Comments

You must log in to add a comment.

Embed Code

Sharing Widget

Related torrents

FILENAME SIZE SEEDS PEERS ADDED UPD
[i] Party Bus to Hell (2017) [WEBRip] [720p] [YTS AM] 689.82 MB 27 4 3 months 4 weeks
[i] Party Bus to Hell (2017) [WEBRip] [1080p] [YTS AM] 1.3 GB 25 5 3 months 4 weeks
[i] Hell Is Where The Party Is (Split Scenes) 1.43 GB 4 4 5 years 1 year
[i] Party B Hell 2017.BRRip.XviD.AC3-EVO 1.34 GB 2 0 2 weeks 4 days
[i] Fear.Factor.2017.S02E10.Party.From.Hell.HDTV.x264-CRiMSON[eztv] 418.82 MB 1 1 3 months 1 week
[i] 18+ Party Bus to Hell 2018 720p WEB-DL DD5 1 H264 LLG
posted by LifeLongg in Movies - Horror
1.01 GB 1 0 3 months 4 weeks
[i] Giuliana.And.Bill.S04E07.Its.Bills.Party.And.Hell.Cry.If.He.Want 355.32 MB 0 0 6 years 1 year
[i] [WMV 1.43G][HARMONY][Hell Is Where The Party Is] 1.44 GB 0 0 6 years 1 year
[i] Hell Is Where The Party Is_Viva Silvia Angel_XXX_DVDRip_Split Scenes 1.43 GB 0 1 5 years 1 year
[i] Fear.Factor.2017.S02E10.Party.From.Hell.720p.HDTV.x264-CRiMSON[N1C] 1.36 GB 0 0 3 months 1 week

Top Movies ( auto generated report )

FILENAME SIZE SEEDS PEERS ADDED UPD
[i] Overboard (2018) [WEBRip] [720p] [YTS AM] 950.69 MB 4797 1885 2 days 1 hour
[i] How It Ends (2018) [WEBRip] [720p] [YTS AM] 970.57 MB 4127 2454 2 days 1 day
[i] Furious (2017) [BluRay] [720p] [YTS AM] 1018.36 MB 3682 2215 2 days 1 day
[i] Overboard (2018) [WEBRip] [1080p] [YTS AM] (1) 1.79 GB 2987 1164 2 days 1 day
[i] Siberia (2018) [WEBRip] [720p] [YTS AM] 891.58 MB 2776 1456 2 days 1 day
[i] How It Ends (2018) [WEBRip] [1080p] [YTS AM] 1.82 GB 2685 1386 2 days 1 day
[i] Furious (2017) [BluRay] [1080p] [YTS AM] 1.9 GB 2622 1258 2 days 1 day
[i] Siberia (2018) [WEBRip] [1080p] [YTS AM] 1.67 GB 1989 917 2 days 1 day
[i] Incredibles 2 2018 HDTC XViD AC3-ETRG 1.31 GB 1317 1064 4 days 3 days
[i] 7 Splinters in Time (2018) [WEBRip] [720p] [YTS AM] 653.09 MB 1218 446 2 days 1 day