Oceans 8 2018 720p HD-TS X264 ENG LLG

Posted by LifeLongg •848 on June 14, 2018 in Movies » Action , verified torrent

Size: 1.02 GB , Seeds: 23 , Peers: 12 ( Updated June 20, 2018 - Refresh )

* Download via Magnet Link , * To download files you need a Bittorrent Client , * How to download torrents from Bit Torrent Scene?

Scrape History ( seeds + peers )

Internal Files

Oceans.8.2018.720p.HD-TS.X264.ENG.LLG
Sample.ts   10.43 MB
Sample 2.ts   45.33 MB
Oceans.8.2018.720p.HD-TS.X264.ENG.LLG.mp4   991.25 MB

Hash Code

27fff2cedb680a0dd22c97b6fcbfa76bdc53f10e

Description

******************************Thumbnail:**********************

SCREENSHOT

******************************Screenshots:********************

Screenshot 1

Screenshot 2

Screenshot 3

Screenshot 4

Screenshot 5

Screenshot 6

Screenshot 7

Screenshot 8

Screenshot 9

Screenshot 0

**************************************************************

Complete name : Oceans.8.2018.720p.HD-TS.X264.ENG.LLG.mp4
Format : MPEG-4
Format profile : Base Media
Codec ID : isom (isom/iso2/avc1/mp41)
File size : 991 MiB
Duration : 1 h 43 min
Overall bit rate : 1 336 kb/s
Writing application : Lavf57.56.101

Video
ID : 1
Format : AVC
Format/Info : Advanced Video Codec
Format profile : High@L3.1
Format settings : CABAC / 4 Ref Frames
Format settings, CABAC : Yes
Format settings, RefFrames : 4 frames
Codec ID : avc1
Codec ID/Info : Advanced Video Coding
Duration : 1 h 43 min
Bit rate : 1 200 kb/s
Width : 1 280 pixels
Height : 536 pixels
Display aspect ratio : 2.40:1
Frame rate mode : Constant
Frame rate : 23.976 (23976/1000) FPS
Color space : YUV
Chroma subsampling : 4:2:0
Bit depth : 8 bits
Scan type : Progressive
Bits/(Pixel*Frame) : 0.073
Stream size : 891 MiB (90%)


Audio
ID : 2
Format : MPEG Audio
Format version : Version 1
Format profile : Layer 3
Format settings : Joint stereo / MS Stereo
Codec ID : mp4a-6B
Duration : 1 h 43 min
Bit rate mode : Constant
Bit rate : 128 kb/s
Channel(s) : 2 channels
Sampling rate : 44.1 kHz
Compression mode : Lossy
Stream size : 94.9 MiB (10%)
Writing library : LAME3.99.5
Default : Yes
Alternate group : 1

Trackers

Refresh Leechers : Updated June 20, 2018

1. udp://tracker.openbittorrent.com:80/announce

2. udp://tracker.opentrackr.org:1337/announce

Comments

You must log in to add a comment.

Embed Code

Sharing Widget

Related torrents

FILENAME SIZE SEEDS PEERS ADDED UPD
[i] Oceans 8 (2018 ) 720p HD-TS X264-CPG mkv [MOVCR] mp4
posted by Tamilgun in Movies - Action
910.04 MB 61 13 1 week 2 days
[i] Oceans 8 2018 720p HD-TS x264 AAC [MW]
posted by moviefreak in Movies - Action
985.67 MB 30 13 1 week 2 days
[i] Oceans 8 2018 720p HD-TS X264 MP3 LLG
posted by LifeLongg in Movies - Action
1.21 GB 23 12 1 week 2 days
[i] Oceans 8 2018 720p HDTS X264 CPG 2.3 GB 12 37 1 week 1 week
[i] Oceans 8 2018 720p HD-TS X264-CPG 2.3 GB 0 0 1 week 1 week
[i] Oceans 8 2018 720p TS HEVC x265-RMTeam 539.8 MB 0 0 1 week 1 week

Top Movies ( auto generated report )

FILENAME SIZE SEEDS PEERS ADDED UPD
[i] Rampage (2018) [WEBRip] [720p] [YTS AM] 924.3 MB 13992 12685 3 days 2 days
[i] Rampage (2018) [WEBRip] [1080p] [YTS AM] 1.73 GB 11810 9729 3 days 2 days
[i] Ready Player One (2018) [WEBRip] [1080p] [YTS AM] 2.24 GB 10162 5063 3 days 9 hours
[i] Ready Player One (2018) [WEBRip] [720p] [YTS AM] 1.16 GB 9167 6479 3 days 2 days
[i] Blockers (2018) [WEBRip] [720p] [YTS AM] 861.94 MB 3817 2346 1 day 3 hours
[i] Life of the Party (2018) [WEBRip] [720p] [YTS AM] 886.77 MB 3245 2104 3 days 2 days
[i] Isle of Dogs (2018) [WEBRip] [1080p] [YTS AM] 1.55 GB 2561 854 1 day 3 hours
[i] Blockers (2018) [WEBRip] [1080p] [YTS AM] 1.62 GB 2549 1065 1 day 3 hours
[i] The Death of Superman (2018) [WEBRip] [720p] [YTS AM] 690.36 MB 2300 1288 3 days 2 days
[i] Beirut (2018) [WEBRip] [720p] [YTS AM] 929.6 MB 2164 1197 5 days 4 days