Your IP Address is . Location is Your ISP and Government can track your torrent activity! Hide your IP with a VPN!

Jigsaw 2017 720p WEB-DL 6CH AAC LLG

DOWNLOAD TORRENT DOWNLOAD DOWNLOAD ANONYMOUS

Posted by LifeLongg •253 on January 10, 2018 in Movies » Horror , verified torrent

Size: 1.03 GB , Seeds: 20 , Peers: 13 ( Updated January 16, 2018 - Refresh )

* Download via Magnet Link , * To download files you need a Bittorrent Client , * How to download torrents from Bit Torrent Scene?

Scrape History ( seeds + peers )

Internal Files

Jigsaw.2017.720p.WEB-DL.6CH.AAC.LLG
Sample.mp4   25.18 MB
Jigsaw.2017.720p.WEB-DL.6CH.AAC.LLG.mp4   1 GB

Hash Code

70002c8d585e1a9ba46f3d364fbd4d2c3ae76a3b

Description

******************************Thumbnail:**********************

SCREENSHOT

******************************Screenshots:********************

Screenshot 1

Screenshot 2

Screenshot 3

Screenshot 4

Screenshot 5

Screenshot 6

Screenshot 7

Screenshot 8

Screenshot 9

Screenshot 0

**************************************************************

Complete name : Jigsaw.2017.720p.WEB-DL.6CH.AAC.LLG.mp4
Format : MPEG-4
Format profile : Base Media
Codec ID : isom (isom/iso2/avc1/mp41)
File size : 1.00 GiB
Duration : 1 h 32 min
Overall bit rate : 1 553 kb/s
Writing application : Lavf57.56.101

Video
ID : 1
Format : AVC
Format/Info : Advanced Video Codec
Format profile : High@L3.1
Format settings : CABAC / 4 Ref Frames
Format settings, CABAC : Yes
Format settings, RefFrames : 4 frames
Codec ID : avc1
Codec ID/Info : Advanced Video Coding
Duration : 1 h 32 min
Bit rate : 1 500 kb/s
Width : 1 280 pixels
Height : 536 pixels
Display aspect ratio : 2.40:1
Frame rate mode : Constant
Frame rate : 23.976 (23976/1000) FPS
Color space : YUV
Chroma subsampling : 4:2:0
Bit depth : 8 bits
Scan type : Progressive
Bits/(Pixel*Frame) : 0.091
Stream size : 978 MiB (95%)


Audio
ID : 2
Format : AAC
Format/Info : Advanced Audio Codec
Format profile : LC
Codec ID : mp4a-40-2
Duration : 1 h 32 min
Bit rate mode : Constant
Bit rate : 64.4 kb/s
Channel(s) : 2 channels
Channel(s)_Original : 6 channels
Channel positions : Front: L C R, Side: L R, LFE
Sampling rate : 48.0 kHz
Frame rate : 46.875 FPS (1024 SPF)
Compression mode : Lossy
Stream size : 42.4 MiB (4%)
Language : English
Default : Yes
Alternate group : 1

Trackers

Refresh Leechers : Updated January 16, 2018

1. udp://tracker.openbittorrent.com:80/announce

2. udp://tracker.opentrackr.org:1337/announce

Comments

You must log in to add a comment.

Embed Code

Sharing Widget

Related torrents

FILENAME SIZE SEEDS PEERS ADDED UPD
[i] Jigsaw (2017) [720p] [YTS AG] 675.39 MB 3922 2227 2 days 1 day
[i] Jigsaw.2017.720p.WEB-DL.H264.AC3-EVO[EtHD] 2.89 GB 46 23 1 week 3 days
[i] Jigsaw.2017.720p.WEB-DL.Dual.YG
posted by yerisan710 in Movies - Thriller
1.55 GB 33 67 5 days 4 days
[i] Jigsaw 2017 720p WEB-DL DD 5 1 x264
posted by moviefreak in Movies - Horror
873.77 MB 16 10 1 week 3 days
[i] Jigsaw 2017 720p BluRay x264-NeZu
posted by NeZu2k16 in Movies - Horror
817.49 MB 15 10 2 days 1 day
[i] Jigsaw.2017.720p.WEB-DL.H264.AC3-EVO 2.89 GB 14 6 1 week 3 days

Top Movies ( auto generated report )

FILENAME SIZE SEEDS PEERS ADDED UPD
[i] Geostorm (2017) [1080p] [YTS AG] 1.67 GB 5754 3112 1 day 15 hours
[i] Geostorm (2017) [720p] [YTS AG] 812.63 MB 5412 3658 1 day 15 hours
[i] Jigsaw (2017) [1080p] [YTS AG] 1.4 GB 4322 2711 2 days 1 day
[i] Jigsaw (2017) [720p] [YTS AG] 675.39 MB 3922 2227 2 days 1 day
[i] Mollys Game 2017 DVDScr XVID AC3 HQ Hive CM8 1.79 GB 2207 1893 2 days 1 day
[i] Darkest.Hour.2017.DVDScr.XVID.AC3.HQ.Hive-CM8 1.92 GB 2179 593 6 days 18 hours
[i] Professor Marston and the Wonder Women (2017) [720p] [YTS AG] 791.43 MB 2159 1179 4 days 3 days
[i] Acts.of.Violence.2018.WEB-DL.x264-FGT [rarbg] 760.65 MB 998 151 6 days 6 hours
[i] Acts of Violence.2018.HDRip.XviD.AC3-EVO 1.42 GB 1102 380 6 days 6 hours
[i] Thank You for Your Service (2017) [720p] [YTS AG] 801.88 MB 1658 1072 4 days 3 days