Your IP Address is . Location is Your ISP and Government can track your torrent activity! Hide your IP with a VPN!

Fear The Walking Dead Season 1 2015 720p BD Dual Audio English Hindi GD

DOWNLOAD TORRENT DOWNLOAD DOWNLOAD ANONYMOUS

Posted by gopisahi •568 on January 10, 2018 in Movies » Horror , verified torrent

Size: 1.29 GB , Seeds: 23 , Peers: 7 ( Updated January 16, 2018 - Refresh )

* Download via Magnet Link , * To download files you need a Bittorrent Client , * How to download torrents from Bit Torrent Scene?

Scrape History ( seeds + peers )

Internal Files

Fear The Walking Dead Season 1 2015 720p BD Dual Audio English Hindi GD
Fear The Walking Dead 3.mkv   130.06 MB
Fear The Walking Dead 2.mkv   204.66 MB
Fear The Walking Dead 5.mkv   214.34 MB
Fear The Walking Dead 4.mkv   220.7 MB
Fear The Walking Dead 6.mkv   246.4 MB
Fear The Walking Dead 1.mkv   307.94 MB

Hash Code

3d896598d325691eba587f76de88cee2055f6490

Description

SCREENSHOT
Format : Matroska
Format version : Version 4 / Version 2
File size : 308 MiB
Overall bit rate : 667 kb/s
Movie name : 1 GOPISAHI

Video
Format : AVC
Codec ID : V_MPEG4/ISO/AVC
Bit rate : 500 kb/s
Width : 1 280 pixels
Height : 720 pixels
Display aspect ratio : 16:9
Frame rate mode : Constant
Frame rate : 23.976 (24000/1001) FPS
Stream size : 231 MiB (75%)
Writing library : x264 core 148 r2708 86b7198

Audio #1
Format : AAC
Bit rate : 81.9 kb/s
Channel(s) : 6 channels
Channel positions : Front: L C R, Side: L R, LFE
Sampling rate : 44.1 kHz
Frame rate : 43.066 FPS (1024 SPF)
Stream size : 37.8 MiB (12%)
Language : Hindi

Audio #2
Format : AAC
Bit rate : 82.2 kb/s
Channel(s) : 6 channels
Frame rate : 43.066 FPS (1024 SPF)
Stream size : 38.0 MiB (12%)
Title : GOPISAHI
Language : English
SCREENSHOT
SCREENSHOT

Trackers

Refresh Leechers : Updated January 16, 2018

1. http://ipv4.tracker.harry.lu/announce

2. http://ipv4.tracker.harry.lu:80/announce

3. http://163.172.180.68:80/announce

4. http://t.nyaatracker.com/announce

5. http://tracker.devil-torrents.pl:80/announce

6. http://tracker.devil-torrents.pl/announce

7. http://open.kickasstracker.com/announce

8. http://163.172.180.68/announce

9. http://t.nyaatracker.com:80/announce

10. http://retracker.mgts.by:80/announce

11. http://45.33.11.224/announce

12. http://tracker.torrentyorg.pl:80/announce

13. http://pt.lax.mx:80/announce

14. udp://tracker.coppersurfer.tk:6969/announce

15. udp://tracker.pirateparty.gr:6969/announce

Comments

You must log in to add a comment.

Embed Code

Sharing Widget

Related torrents

FILENAME SIZE SEEDS PEERS ADDED UPD
[i] Fear.the.Walking.Dead.S02.Passage.Parts.9-16.1080p.WEB-DL.AAC2.0.H264-BTN[rarbg] 235.57 MB 5 5 7 months 1 month
[i] Fear.the.Walking.Dead.S02.Passage.Parts.1-8.1080p.WEB-DL.AAC2.0.H264-BTN[rarbg] 269.32 MB 2 4 7 months 1 month

Top Movies ( auto generated report )

FILENAME SIZE SEEDS PEERS ADDED UPD
[i] Geostorm (2017) [1080p] [YTS AG] 1.67 GB 5754 3112 1 day 15 hours
[i] Geostorm (2017) [720p] [YTS AG] 812.63 MB 5412 3658 1 day 15 hours
[i] Jigsaw (2017) [1080p] [YTS AG] 1.4 GB 4322 2711 2 days 1 day
[i] Jigsaw (2017) [720p] [YTS AG] 675.39 MB 3922 2227 2 days 1 day
[i] Mollys Game 2017 DVDScr XVID AC3 HQ Hive CM8 1.79 GB 2207 1893 2 days 1 day
[i] Darkest.Hour.2017.DVDScr.XVID.AC3.HQ.Hive-CM8 1.92 GB 2179 593 6 days 18 hours
[i] Professor Marston and the Wonder Women (2017) [720p] [YTS AG] 791.43 MB 2159 1179 4 days 3 days
[i] Acts.of.Violence.2018.WEB-DL.x264-FGT [rarbg] 760.65 MB 998 151 6 days 6 hours
[i] Acts of Violence.2018.HDRip.XviD.AC3-EVO 1.42 GB 1102 380 6 days 6 hours
[i] Thank You for Your Service (2017) [720p] [YTS AG] 801.88 MB 1658 1072 4 days 3 days