Your IP Address is . Location is Your ISP and Government can track your torrent activity! Hide your IP with a VPN!

Devils Gate 2017 720p WEB-DL DD 5 1 x264 ESub

DOWNLOAD TORRENT DOWNLOAD DOWNLOAD ANONYMOUS

Posted by moviefreak •674 on January 7, 2018 in Movies » Horror , verified torrent

Size: 958.03 MB , Seeds: 24 , Peers: 4 ( Updated January 13, 2018 - Refresh )

* Download via Magnet Link , * To download files you need a Bittorrent Client , * How to download torrents from Bit Torrent Scene?

Scrape History ( seeds + peers )

Internal Files

Devils Gate 2017 720p WEB-DL DD 5.1 x264 ESub
Devils Gate 2017 720p WEB-DL DD 5.1 x264 ESub.mkv   958.03 MB

Hash Code

7e9623f4c321abfee2f030f183d73962093818b3

Description


SCREENSHOT

General
Format : Matroska
Format version : Version 4 / Version 2
File size : 958 MiB
Duration : 1 h 34 min
Overall bit rate : 1 421 kb/s

Video
ID : 1
Format : AVC
Format/Info : Advanced Video Codec
Format profile : High@L4.1
Format settings : CABAC / 4 Ref Frames
Format settings, CABAC : Yes
Format settings, ReFrames : 4 frames
Codec ID : V_MPEG4/ISO/AVC
Duration : 1 h 34 min
Bit rate : 1 200 kb/s
Width : 1 280 pixels
Height : 532 pixels
Display aspect ratio : 2.40:1
Frame rate mode : Constant
Frame rate : 23.976 (24000/1001) FPS
Color space : YUV
Chroma subsampling : 4:2:0
Bit depth : 8 bits
Scan type : Progressive
Bits/(Pixel*Frame) : 0.073
Stream size : 784 MiB (82%)
Writing library : x264 core 148 r2708 86b7198
Default : Yes
Forced : No

Audio
ID : 2
Format : AC-3
Format/Info : Audio Coding 3
Codec ID : A_AC3
Duration : 1 h 34 min
Bit rate mode : Constant
Bit rate : 256 kb/s
Channel(s) : 6 channels
Channel positions : Front: L C R, Side: L R, LFE
Sampling rate : 48.0 kHz
Frame rate : 31.250 FPS (1536 SPF)
Bit depth : 16 bits
Compression mode : Lossy
Stream size : 173 MiB (18%)
Language : English
Service kind : Complete Main
Default : Yes
Forced : No

Text
ID : 3
Format : UTF-8
Codec ID : S_TEXT/UTF8
Codec ID/Info : UTF-8 Plain Text
Duration : 1 h 25 min
Bit rate : 56 b/s
Count of elements : 1073
Stream size : 35.3 KiB (0%)
Language : English
Default : Yes
Forced : No

Menu
00:00:00.000 : en:1
00:11:54.547 : en:2
00:23:47.718 : en:3
00:34:33.822 : en:4
00:47:00.276 : en:5
00:57:27.152 : en:6
01:09:10.647 : en:7
01:19:24.635 : en:8
01:27:22.279 : en:9





SCREENSHOT
SCREENSHOT
http://pichub.site/image/S2oB
http://pichub.site/image/Sphs
http://pichub.site/image/SoJR
http://pichub.site/image/SLPu

Trackers

Refresh Leechers : Updated January 13, 2018

1. http://ipv4.tracker.harry.lu/announce

2. http://ipv4.tracker.harry.lu:80/announce

3. http://tracker.electro-torrent.pl/announce

4. http://tracker.electro-torrent.pl:80/announce

5. http://retracker.mgts.by:80/announce

6. http://pt.lax.mx:80/announce

7. http://tracker.torrentyorg.pl:80/announce

8. http://163.172.180.68/announce

9. http://82.209.230.66/announce

10. http://107.174.238.55:80/announce

11. http://t.nyaatracker.com/announce

12. http://t.nyaatracker.com:80/announce

13. udp://tracker.coppersurfer.tk:6969/announce

14. udp://tracker.coppersurfer.tk:80/announce

15. udp://tracker.coppersurfer.tk:6969

Comments

You must log in to add a comment.

Embed Code

Sharing Widget

Top Movies ( auto generated report )

FILENAME SIZE SEEDS PEERS ADDED UPD
[i] Geostorm (2017) [1080p] [YTS AG] 1.67 GB 5754 3112 1 day 15 hours
[i] Geostorm (2017) [720p] [YTS AG] 812.63 MB 5412 3658 1 day 15 hours
[i] Jigsaw (2017) [1080p] [YTS AG] 1.4 GB 4322 2711 2 days 1 day
[i] Jigsaw (2017) [720p] [YTS AG] 675.39 MB 3922 2227 2 days 1 day
[i] Mollys Game 2017 DVDScr XVID AC3 HQ Hive CM8 1.79 GB 2207 1893 2 days 1 day
[i] Darkest.Hour.2017.DVDScr.XVID.AC3.HQ.Hive-CM8 1.92 GB 2179 593 6 days 18 hours
[i] Professor Marston and the Wonder Women (2017) [720p] [YTS AG] 791.43 MB 2159 1179 4 days 3 days
[i] Acts.of.Violence.2018.WEB-DL.x264-FGT [rarbg] 760.65 MB 998 151 6 days 6 hours
[i] Acts of Violence.2018.HDRip.XviD.AC3-EVO 1.42 GB 1102 380 6 days 6 hours
[i] Thank You for Your Service (2017) [720p] [YTS AG] 801.88 MB 1658 1072 4 days 3 days