Your IP Address is . Location is Your ISP and Government can track your torrent activity! Hide your IP with a VPN!

Bullet Head 2017 1080p BluRay AC3 5 1 x264 ESub

DOWNLOAD TORRENT DOWNLOAD DOWNLOAD ANONYMOUS

Posted by moviefreak •674 on January 9, 2018 in Movies » Horror , verified torrent

Size: 1.89 GB , Seeds: 9 , Peers: 5 ( Updated January 15, 2018 - Refresh )

* Download via Magnet Link , * To download files you need a Bittorrent Client , * How to download torrents from Bit Torrent Scene?

Scrape History ( seeds + peers )

Internal Files

Bullet Head 2017 1080p BluRay AC3 5.1 x264 ESub
Bullet Head 2017 1080p BluRay AC3 5.1 x264 ESub.mkv   1.89 GB

Hash Code

c1e8489e3ec5792689325547011cf5b0309fbd77

Description


SCREENSHOT


General
Format : Matroska
Format version : Version 4 / Version 2
File size : 1.89 GiB
Duration : 1 h 34 min
Overall bit rate : 2 876 kb/s

Video
ID : 1
Format : AVC
Format/Info : Advanced Video Codec
Format profile : High@L4.1
Format settings : CABAC / 4 Ref Frames
Format settings, CABAC : Yes
Format settings, ReFrames : 4 frames
Codec ID : V_MPEG4/ISO/AVC
Duration : 1 h 34 min
Bit rate : 2 618 kb/s
Nominal bit rate : 2 800 kb/s
Width : 1 892 pixels
Height : 806 pixels
Display aspect ratio : 2.35:1
Frame rate mode : Constant
Frame rate : 23.976 (24000/1001) FPS
Color space : YUV
Chroma subsampling : 4:2:0
Bit depth : 8 bits
Scan type : Progressive
Bits/(Pixel*Frame) : 0.072
Stream size : 1.72 GiB (91%)
Writing library : x264 core 148 r2708 86b7198
Default : Yes
Forced : No

Audio
ID : 2
Format : AC-3
Format/Info : Audio Coding 3
Codec ID : A_AC3
Duration : 1 h 34 min
Bit rate mode : Constant
Bit rate : 256 kb/s
Channel(s) : 6 channels
Channel positions : Front: L C R, Side: L R, LFE
Sampling rate : 48.0 kHz
Frame rate : 31.250 FPS (1536 SPF)
Bit depth : 16 bits
Compression mode : Lossy
Stream size : 173 MiB (9%)
Language : English
Service kind : Complete Main
Default : Yes
Forced : No

Text
ID : 3
Format : UTF-8
Codec ID : S_TEXT/UTF8
Codec ID/Info : UTF-8 Plain Text
Duration : 1 h 33 min
Bit rate : 41 b/s
Count of elements : 1067
Stream size : 28.6 KiB (0%)
Language : English
Default : Yes
Forced : No


SCREENSHOT
SCREENSHOT
SCREENSHOT
http://pichub.site/image/EZCV
http://pichub.site/image/E1LT
http://pichub.site/image/E9QN
http://pichub.site/image/ET7D

Trackers

Refresh Leechers : Updated January 15, 2018

1. udp://tracker.coppersurfer.tk:6969/announce

2. udp://tracker.cyberia.is:6969/announce

3. udp://inferno.demonoid.pw:3391/announce

4. udp://open.stealth.si:80/announce

5. udp://tracker.pirateparty.gr:6969/announce

6. udp://peerfect.org:6969/announce

7. udp://p4p.arenabg.com:1337/announce

8. udp://p4p.arenabg.ch:1337/announce

9. udp://tracker.leechers-paradise.org:6969/announce

10. udp://ipv4.tracker.harry.lu:80/announce

11. udp://shadowshq.yi.org:6969/announce

12. udp://tracker.vanitycore.co:6969/announce

13. udp://tracker.opentrackr.org:1337/announce

14. udp://explodie.org:6969/announce

15. udp://tracker.zer0day.to:1337/announce

16. udp://tracker.leechers-paradise.org:6969/announce

17. udp://coppersurfer.tk:6969/announce

Comments

You must log in to add a comment.

Embed Code

Sharing Widget

Related torrents

FILENAME SIZE SEEDS PEERS ADDED UPD
[i] Bullet Head (2017) [1080p] [YTS AG] 1.45 GB 1059 423 4 days 3 days
[i] Bullet Head 2017 1080p BluRay 6CH AAC x264 - EiE 1.61 GB 42 27 3 days 2 days
[i] Bullet.Head.2017.1080p.BluRay.DTS-HD.MA.5.1.x264-iFT[SN] 12.27 GB 6 10 1 week 1 day

Top Movies ( auto generated report )

FILENAME SIZE SEEDS PEERS ADDED UPD
[i] Geostorm (2017) [1080p] [YTS AG] 1.67 GB 5754 3112 1 day 15 hours
[i] Geostorm (2017) [720p] [YTS AG] 812.63 MB 5412 3658 1 day 15 hours
[i] Jigsaw (2017) [1080p] [YTS AG] 1.4 GB 4322 2711 2 days 1 day
[i] Jigsaw (2017) [720p] [YTS AG] 675.39 MB 3922 2227 2 days 1 day
[i] Mollys Game 2017 DVDScr XVID AC3 HQ Hive CM8 1.79 GB 2207 1893 2 days 1 day
[i] Darkest.Hour.2017.DVDScr.XVID.AC3.HQ.Hive-CM8 1.92 GB 2179 593 6 days 18 hours
[i] Professor Marston and the Wonder Women (2017) [720p] [YTS AG] 791.43 MB 2159 1179 4 days 3 days
[i] Acts.of.Violence.2018.WEB-DL.x264-FGT [rarbg] 760.65 MB 998 151 6 days 6 hours
[i] Acts of Violence.2018.HDRip.XviD.AC3-EVO 1.42 GB 1102 380 6 days 6 hours
[i] Thank You for Your Service (2017) [720p] [YTS AG] 801.88 MB 1658 1072 4 days 3 days