Your IP Address is . Location is Your ISP and Government can track your torrent activity! Hide your IP with a VPN!

18+ Escorts 2015 480p WEBRip English AAC LLG

DOWNLOAD TORRENT DOWNLOAD PROTECT YOUR PRIVACY

Posted by LifeLongg •596 on April 16, 2018 in Movies » Documentary , verified torrent

Size: 349.27 MB , Seeds: 8 , Peers: 0 ( Updated April 22, 2018 - Refresh )

* Download via Magnet Link , * To download files you need a Bittorrent Client , * How to download torrents from Bit Torrent Scene?

Scrape History ( seeds + peers )

Internal Files

18+.Escorts.2015.480p.WEBRip. English.AAC.LLG
Sample.mp4   7.72 MB
18+.Escorts.2015.480p.WEBRip. English.AAC.LLG.mp4   341.55 MB

Hash Code

9aaae4813a6b49c99bdc5dfc4ad2ec7a81cb30fb

Description

SCREENSHOT

SCREENSHOT

******************************Thumbnail:**********************

SCREENSHOT

******************************Screenshots:********************

Screenshot 1

Screenshot 2

Screenshot 3

Screenshot 4

Screenshot 5

Screenshot 6

Screenshot 7

Screenshot 8

Screenshot 9

Screenshot 0

**************************************************************

Complete name : 18+.Escorts.2015.480p.WEBRip.English.AAC.LLG.mp4
Format : MPEG-4
Format profile : Base Media
Codec ID : isom (isom/iso2/avc1/mp41)
File size : 342 MiB
Duration : 46 min 26 s
Overall bit rate : 1 028 kb/s
Writing application : Lavf57.56.101

Video
ID : 1
Format : AVC
Format/Info : Advanced Video Codec
Format profile : High@L3
Format settings : CABAC / 4 Ref Frames
Format settings, CABAC : Yes
Format settings, RefFrames : 4 frames
Codec ID : avc1
Codec ID/Info : Advanced Video Coding
Duration : 46 min 26 s
Bit rate : 900 kb/s
Width : 720 pixels
Height : 404 pixels
Display aspect ratio : 16:9
Frame rate mode : Constant
Frame rate : 29.970 (29970/1000) FPS
Color space : YUV
Chroma subsampling : 4:2:0
Bit depth : 8 bits
Scan type : Progressive
Bits/(Pixel*Frame) : 0.103
Stream size : 296 MiB (87%)

Audio
ID : 2
Format : AAC
Format/Info : Advanced Audio Codec
Format profile : LC
Codec ID : mp4a-40-2
Duration : 46 min 26 s
Bit rate mode : Constant
Bit rate : 129 kb/s
Channel(s) : 2 channels
Channel positions : Front: L R
Sampling rate : 48.0 kHz
Frame rate : 46.875 FPS (1024 SPF)
Compression mode : Lossy
Stream size : 42.7 MiB (13%)
Default : Yes
Alternate group : 1

Trackers

Refresh Leechers : Updated April 22, 2018

1. udp://tracker.openbittorrent.com:80/announce

2. udp://tracker.opentrackr.org:1337/announce

3. UDP://TRACKER.LEECHERS-PARADISE.ORG:6969/ANNOUNCE

Comments

You must log in to add a comment.

Embed Code

Sharing Widget

Related torrents

FILENAME SIZE SEEDS PEERS ADDED UPD
[i] 18+ Escorts (2015) WEBRip 480p English 250MB MP4
posted by shilpa143 in Movies - Documentary
245 MB 86 12 3 weeks 1 week

Top Movies ( auto generated report )

FILENAME SIZE SEEDS PEERS ADDED UPD
[i] Fifty Shades Freed (2018) [WEBRip] [720p] [YTS AM] 891.52 MB 3978 5590 5 hours 3 hours
[i] Pacific Rim 2 Uprising 2018 720p korsub hdrip x264 aac2 0-stuttershit 2.75 GB 3342 743 3 days 2 days
[i] What Happened to Monday (2017) [BluRay] [720p] [YTS AM] 1.04 GB 3233 1826 5 hours 3 hours
[i] Fifty Shades Freed (2018) [WEBRip] [1080p] [YTS AM] 1.68 GB 3115 3679 5 hours 3 hours
[i] What Happened to Monday (2017) [BluRay] [1080p] [YTS AM] 1.99 GB 2250 1066 5 hours 3 hours
[i] Genesis (2018) [WEBRip] [720p] [YTS AM] 965.85 MB 1369 860 3 days 2 days
[i] downloadhub in Sonu Ke Titu Ki Sweety (2018) Hindi 720p HDRip x264 AAC ESubs - Downloadhub 1.06 GB 1297 910 5 days 3 days
[i] Corbin Nash (2018) [WEBRip] [720p] [YTS AM] 824.69 MB 1240 725 3 days 2 days
[i] The Debt Collector (2018) [BluRay] [720p] [YTS AM] 818.36 MB 1225 444 3 days 17 hours
[i] Genesis (2018) [WEBRip] [1080p] [YTS AM] 1.81 GB 1010 581 3 days 2 days