Your IP Address is . Location is Your ISP and Government can track your torrent activity! Hide your IP with a VPN!

12 Strong 2018 720p WEBRip x264 AAC LLG

DOWNLOAD TORRENT DOWNLOAD PROTECT YOUR PRIVACY

Posted by LifeLongg •581 on April 16, 2018 in Movies » Action , verified torrent

Size: 937.27 MB , Seeds: 17 , Peers: 8 ( Updated April 17, 2018 - Refresh )

* Download via Magnet Link , * To download files you need a Bittorrent Client , * How to download torrents from Bit Torrent Scene?

Scrape History ( seeds + peers )

Internal Files

12.Strong.2018.720p.WEBRip.x264.AAC.LLG
Sample.mp4   7.65 MB
12.Strong.2018.720p.WEBRip.x264.AAC.LLG.mp4   929.63 MB

Hash Code

5865e47193aba3f00269f7c1bf07b5573d4fcbaf

Description

SCREENSHOT

SCREENSHOT

******************************Thumbnail:**********************

SCREENSHOT

******************************Screenshots:********************

Screenshot 1

Screenshot 2

Screenshot 3

Screenshot 4

Screenshot 5

Screenshot 6

Screenshot 7

Screenshot 8

Screenshot 9

Screenshot 0

**************************************************************

Complete name : 12.Strong.2018.720p.WEBRip.x264.AAC.LLG.mp4
Format : MPEG-4
Format profile : Base Media
Codec ID : isom (isom/iso2/avc1/mp41)
File size : 930 MiB
Duration : 2 h 9 min
Overall bit rate : 1 001 kb/s
Writing application : Lavf57.56.101

Video
ID : 1
Format : AVC
Format/Info : Advanced Video Codec
Format profile : High@L3.1
Format settings : CABAC / 4 Ref Frames
Format settings, CABAC : Yes
Format settings, RefFrames : 4 frames
Codec ID : avc1
Codec ID/Info : Advanced Video Coding
Duration : 2 h 9 min
Bit rate : 900 kb/s
Width : 1 280 pixels
Height : 534 pixels
Display aspect ratio : 2.40:1
Original display aspect ratio : 2.40:1
Frame rate mode : Constant
Frame rate : 23.976 (23976/1000) FPS
Color space : YUV
Chroma subsampling : 4:2:0
Bit depth : 8 bits
Scan type : Progressive
Bits/(Pixel*Frame) : 0.055
Stream size : 804 MiB (87%)

Audio
ID : 2
Format : AAC
Format/Info : Advanced Audio Codec
Format profile : LC
Codec ID : mp4a-40-2
Duration : 2 h 9 min
Duration_LastFrame : -16 ms
Bit rate mode : Constant
Bit rate : 129 kb/s
Channel(s) : 2 channels
Channel positions : Front: L R
Sampling rate : 48.0 kHz
Frame rate : 46.875 FPS (1024 SPF)
Compression mode : Lossy
Stream size : 120 MiB (13%)
Default : Yes
Alternate group : 1

Trackers

Refresh Leechers : Updated April 17, 2018

1. udp://tracker.openbittorrent.com:80/announce

2. udp://tracker.opentrackr.org:1337/announce

3. UDP://TRACKER.LEECHERS-PARADISE.ORG:6969/ANNOUNCE

Comments

You must log in to add a comment.

Embed Code

Sharing Widget

Related torrents

FILENAME SIZE SEEDS PEERS ADDED UPD
[i] 12 Strong (2018) [WEBRip] [720p] [YTS AM] 1.08 GB 4744 3274 2 days 1 day
[i] 12 Strong 2018 720p WEB-DL HEVC x265-RMTeam 798.03 MB 41 10 2 weeks 2 days
[i] 12 Strong 2018 720p WEB-DL DD 5 1 x264 ESub [MW]
posted by moviefreak in Movies - Action
1.32 GB 9 10 2 weeks 2 days
[i] downloadhub in 12 Strong (2018) 720p Web-DL x264 AAC ESubs - Downloadhub
posted by downloadhub in Movies - Action
1019.32 MB 6 10 2 weeks 2 days
[i] downloadhub in 12 Strong (2018) 720p BluRay x264 AAC ESubs - Downloadhub
posted by downloadhub in Movies - Action
1018.41 MB 6 4 1 day 22 hours
[i] 12.Strong.2018.720p.WEB-DL.X264.AC3-CMRG 2.8 GB 5 3 2 weeks 2 days
[i] 12.Strong.2018.720p.WEB-DL.H264.AC3-EVO 4.02 GB 4 8 2 weeks 2 days
[i] Watch.What.Happens.Live.2018.02.07.Cecily.Strong.and.Whitney.Cummings.720p.WEB.x264-CookieMonster[eztv] 416.32 MB 0 2 2 months 5 days

Top Movies ( auto generated report )

FILENAME SIZE SEEDS PEERS ADDED UPD
[i] 12 Strong (2018) [BluRay] [1080p] [YTS AM] 2.09 GB 3539 2331 15 hours 13 hours
[i] 12 Strong (2018) [BluRay] [720p] [YTS AM] 1.09 GB 3362 3040 15 hours 13 hours
[i] Peter Rabbit (2018) [BluRay] [720p] [YTS AM] 813.66 MB 3311 3680 15 hours 13 hours
[i] Peter Rabbit (2018) [BluRay] [1080p] [YTS AM] 1.52 GB 2696 2510 15 hours 13 hours
[i] Pacific.Rim.2.Uprising.2018.KORSUB.HDRip.x264-STUTTERSHIT 1.05 GB 2686 1314 1 day 11 hours
[i] The Debt Collector (2018) [WEBRip] [720p] [YTS AM] 816.73 MB 1527 1000 1 day 14 hours
[i] Forever My Girl (2018) [BluRay] [720p] [YTS AM] 911.76 MB 1527 1344 15 hours 13 hours
[i] The Debt Collector (2018) [WEBRip] [1080p] [YTS AM] 1.53 GB 1055 628 1 day 14 hours
[i] Hostiles (2017) [BluRay] [1080p] [YTS AM] 2.17 GB 1024 661 15 hours 13 hours
[i] Hostiles (2017) [BluRay] [720p] [YTS AM] 1.14 GB 982 599 15 hours 13 hours